фильмы спасибо что живой скачать бесплатно

Перейти к контенту

Главное меню:

Интересное
фильмы спасибо что живой скачать бесплатно, Высоцкий Спасибо что живой скачать торрент в хорошем , Высоцкий. Спасибо, что живой (2011) DVDRip Лицензия , Высоцкий. Спасибо, что живой - скачать бесплатно, Фильм Высоцкий. Спасибо, что живой (2011) скачать торрент , Скачать торрент Высоцкий. Спасибо, что живой (2011) HDRip , Высоцкий. Спасибо, что живой фильм (2011) скачать через , Высоцкий. Спасибо, что живой - 2011 год Скачать фильм на .
Перевод: ОригиналКодек: x264Качество: BDRip (источник: Blu-ray Disc)Видео: 1920x816 (2,35:1), 23.976 fps, 4097 kbpsЗвук: 48 kHz, AC-3, 6 ch, 640 kbpsВидео: Идентификатор : 1 Формат : AVC Формат/Информация : Advanced Video Codec Профиль формата : Параметр CABAC формата : Да Параметр ReFrames формата : 5 кадров Идентификатор кодека : V_MPEG4/ISO/AVC Продолжительность : 2 ч. 12 м. Битрейт : 4097 Кбит/сек Ширина : 1920 пикселей Высота : 816 пикселей Соотношение сторон : 2,35:1 Частота кадров : 23,976 кадра/сек Цветовое пространство : YUV Субдискретизация насыщенности : 4:2:0 Битовая глубина : 8 бит Тип развёртки : Прогрессивная Бит/(Пиксели*Кадры) : 0.109 Размер потока : 3,70 Гбайт (85%) Заголовок : Release by AlexKa Библиотека кодирования : x264 core 120 r2146 bcd41db Настройки программы : cabac=1 / ref=5 / deblock=1:0:0 / analyse=0x3:0x133 / me=umh / subme=10 / psy=1 / psy_rd=1.00:0.10 / mixed_ref=1 / me_range=32 / chroma_me=1 / trellis=2 / 8x8dct=1 / cqm=0 / deadzone=21,11 / fast_pskip=0 / chroma_qp_offset=-3 / threads=12 / sliced_threads=0 / nr=0 / decimate=1 / interlaced=0 / bluray_compat=0 / constrained_intra=0 / bframes=5 / b_pyramid=2 / b_adapt=2 / b_bias=0 / direct=3 / weightb=1 / open_gop=0 / weightp=2 / keyint=240 / keyint_min=24 / scenecut=40 / intra_refresh=0 / rc_lookahead=60 / rc=2pass / mbtree=1 / bitrate=4097 / ratetol=1.0 / qcomp=0.60 / qpmin=0 / qpmax=69 / qpstep=4 / cplxblur=20.0 / qblur=0.5 / ip_ratio=1.40 / aq=1:1.00 Язык : RussianАудио: Идентификатор : 2 Формат : AC-3 Формат/Информация : Audio Coding 3 Расширение режима : CM (complete main) Идентификатор кодека : A_AC3 Продолжительность : 2 ч. 12 м. Вид битрейта : Постоянный Битрейт : 640 Кбит/сек Каналы : 6 каналов Расположение каналов : Front: L C R, Side: L R, LFE Частота : 48,0 КГц Битовая глубина : 16 бит Метод сжатия : С потерями Размер потока : 605 Мбайт (14%) Язык : Russian, Спасибо, что живой скачать торрент в хорошем качестве бесплатно: загрузка Название торрент раздачи, Торрент фильмы скачать » Драмы » Высоцкий. Спасибо, что живой (2011) DVDRip Лицензия Спасибо, что живой (2011) DVDRip Лицензия.
На данной странице Вы можете бесплатно скачать фильм «Высоцкий. Спасибо, что живой» в хорошем качестве., Спасибо, что живой" через торрент в хорошем качестве бесплатно В избранное Убрать из избранного Название: Высоцкий., У нас вы можете скачать торрент игры, скачать игры торрент бесплатно, скачать через торрент игры, скачать игры с торрента, игры скачать торрент, фильмы через торрент, скачать фильмы торрент без регистрации. Мы каждый , Спасибо, что живой, который вы всегда сможете скачать через торрент полностью бесплатно в хорошем качестве hd 720, 1080, а также с хорошим звучанием на русском языке. Приятной загрузки!, Фильмы на мобилку или планшет android iphone mp4 3gp! Все форматы кинофильмов тут. Только на kinotut.tv su самая большая база бесплатных фильмов, сериалов, Представители КГБ перешли к решающим действиям.<"">бесплатно модули и шаблоны для dle Смотреть Высоцкий. Спасибо, что живой онлайн в хорошем качестве hd720.
 
Copyright 2019. All rights reserved.
Назад к содержимому | Назад к главному меню